<?xml version="1.0" encoding="utf-8"?>
<!-- Generator: Adobe Illustrator 15.0.2, SVG Export Plug-In  -->
<!DOCTYPE svg PUBLIC "-//W3C//DTD SVG 1.1//EN" "http://www.w3.org/Graphics/SVG/1.1/DTD/svg11.dtd" [
	<!ENTITY ns_flows "http://ns.adobe.com/Flows/1.0/">
]>
<svg version="1.1"
	 xmlns="http://www.w3.org/2000/svg" xmlns:xlink="http://www.w3.org/1999/xlink" xmlns:a="http://ns.adobe.com/AdobeSVGViewerExtensions/3.0/"
	 x="0px" y="0px" width="381px" height="236px" viewBox="0 0 381 236" enable-background="new 0 0 381 236" xml:space="preserve">
<font horiz-adv-x="1000">
<!-- Copyright 1992, 1994, 1997, 2000, 2004 Adobe Systems Incorporated. All rights reserved. Myriad is either a registered trademark or a trademark of Adobe Systems Incorporated in the United States and/or other countries. -->
<font-face font-family="MyriadPro-Bold" units-per-em="1000" underline-position="-100" underline-thickness="50"/>
<missing-glyph horiz-adv-x="500" d="M0,0l500,0l0,700l-500,0M250,395l-170,255l340,0M280,350l170,255l0,-510M80,50l170,255l170,-255M50,605l170,-255l-170,-255z"/>
<glyph unicode="A" horiz-adv-x="656" d="M416,173l52,-173l164,0l-209,674l-200,0l-206,-674l158,0l48,173M245,287l40,143C296,469 306,520 316,560l2,0C328,520 340,470 352,430l42,-143z"/>
<glyph unicode="B" horiz-adv-x="604" d="M66,3C100,-2 156,-7 231,-7C365,-7 447,15 496,54C538,88 566,136 566,197C566,284 509,342 432,363l0,2C508,393 543,449 543,509C543,570 509,616 462,641C413,670 356,679 263,679C187,679 106,673 66,665M217,564C230,566 249,568 282,568C351,568 390,541 390,490C390,440 347,407 267,407l-50,0M217,298l52,0C345,298 406,271 406,203C406,132 345,106 276,106C250,106 232,106 217,108z"/>
<glyph unicode="C" horiz-adv-x="595" d="M538,138C508,126 457,116 411,116C275,116 195,201 195,336C195,486 289,559 410,559C464,559 507,547 538,534l31,121C542,669 482,685 403,685C199,685 35,557 35,327C35,135 155,-10 388,-10C470,-10 533,5 561,19z"/>
<glyph unicode="D" horiz-adv-x="696" d="M66,3C104,-2 160,-7 239,-7C371,-7 479,21 550,80C615,135 662,224 662,353C662,472 618,555 548,607C483,656 400,679 272,679C195,679 122,674 66,665M219,556C232,559 254,562 288,562C419,562 501,488 500,348C500,187 410,111 272,112C253,112 232,112 219,115z"/>
<glyph unicode="E" horiz-adv-x="534" d="M467,409l-248,0l0,140l263,0l0,125l-416,0l0,-674l430,0l0,125l-277,0l0,160l248,0z"/>
<glyph unicode="&#xC9;" horiz-adv-x="534" d="M467,409l-248,0l0,140l263,0l0,125l-416,0l0,-674l430,0l0,125l-277,0l0,160l248,0M289,833l-84,-123l121,0l123,123z"/>
<glyph unicode="F" horiz-adv-x="527" d="M66,0l153,0l0,271l242,0l0,124l-242,0l0,154l259,0l0,125l-412,0z"/>
<glyph unicode="G" horiz-adv-x="682" d="M629,386l-251,0l0,-119l104,0l0,-141C470,120 442,116 407,116C282,116 195,198 195,337C195,483 291,555 418,555C492,555 538,542 575,526l32,122C574,664 507,681 420,681C199,681 36,553 35,329C34,230 68,142 130,84C192,24 281,-7 404,-7C493,-7 582,15 629,31z"/>
<glyph unicode="H" horiz-adv-x="689" d="M66,674l0,-674l153,0l0,282l251,0l0,-282l152,0l0,674l-152,0l0,-259l-251,0l0,259z"/>
<glyph unicode="I" horiz-adv-x="285" d="M66,674l0,-674l153,0l0,674z"/>
<glyph unicode="J" horiz-adv-x="411" d="M198,250C198,145 158,116 94,116C64,116 37,121 16,128l-17,-123C29,-5 75,-11 110,-11C258,-11 350,56 350,248l0,426l-152,0z"/>
<glyph unicode="K" horiz-adv-x="614" d="M66,0l151,0l0,220l58,71l165,-291l178,0l-235,387l223,287l-187,0l-153,-224C251,426 235,402 220,376l-3,0l0,298l-151,0z"/>
<glyph unicode="L" horiz-adv-x="511" d="M66,0l421,0l0,128l-268,0l0,546l-153,0z"/>
<glyph unicode="M" horiz-adv-x="846" d="M646,0l149,0l-37,674l-199,0l-72,-224C465,375 442,286 423,208l-3,0C405,287 384,371 363,449l-66,225l-203,0l-43,-674l141,0l12,256C209,340 212,444 216,535l2,0C234,447 257,351 279,272l72,-261l119,0l82,263C578,353 606,449 627,535l3,0C630,437 633,339 636,258z"/>
<glyph unicode="N" horiz-adv-x="690" d="M206,0l0,203C206,313 204,408 200,497l3,1C236,419 280,332 320,260l144,-260l160,0l0,674l-140,0l0,-197C484,376 487,285 497,196l-3,0C464,272 424,356 384,427l-140,247l-178,0l0,-674z"/>
<glyph unicode="O" horiz-adv-x="717" d="M363,685C164,685 35,534 35,332C35,140 152,-11 352,-11C549,-11 683,123 683,344C683,530 570,685 363,685M359,564C464,564 522,460 522,339C522,208 463,110 360,110C258,110 196,203 196,335C196,466 256,564 359,564z"/>
<glyph unicode="&#xD3;" horiz-adv-x="717" d="M363,685C164,685 35,534 35,332C35,140 152,-11 352,-11C549,-11 683,123 683,344C683,530 570,685 363,685M359,564C464,564 522,460 522,339C522,208 463,110 360,110C258,110 196,203 196,335C196,466 256,564 359,564M373,834l-84,-123l122,0l122,123z"/>
<glyph unicode="P" horiz-adv-x="581" d="M66,0l151,0l0,241C231,239 249,238 269,238C359,238 436,260 488,309C528,347 550,403 550,469C550,535 521,591 478,625C433,661 366,679 272,679C179,679 113,673 66,665M217,558C228,561 249,564 280,564C356,564 399,527 399,465C399,396 349,355 268,355C246,355 230,356 217,359z"/>
<glyph unicode="Q" horiz-adv-x="717" d="M686,2C633,13 575,25 523,40l0,4C612,84 683,192 683,345C683,529 570,685 364,685C163,685 35,533 35,331C35,111 177,-1 329,-11C345,-12 361,-15 376,-21C466,-59 546,-88 642,-116M359,110C257,110 195,208 196,336C196,462 256,564 360,564C464,564 522,462 522,339C522,207 462,110 359,110z"/>
<glyph unicode="R" horiz-adv-x="593" d="M66,0l151,0l0,265l46,0C325,264 354,241 372,157C392,74 408,19 419,0l156,0C562,26 541,114 520,190C503,252 477,297 430,316l0,3C488,340 549,399 549,485C549,547 527,594 487,626C439,664 369,679 269,679C188,679 115,673 66,665M217,561C228,563 249,566 286,566C356,565 398,534 398,472C398,413 353,375 277,375l-60,0z"/>
<glyph unicode="S" horiz-adv-x="540" d="M40,31C78,10 154,-10 231,-10C416,-10 503,86 503,199C503,294 447,356 328,400C241,433 203,452 203,495C203,530 235,560 301,560C367,560 415,541 442,528l34,123C436,669 380,685 304,685C145,685 49,597 49,482C49,384 122,322 234,283C315,254 347,230 347,188C347,144 310,115 240,115C175,115 112,136 71,157z"/>
<glyph unicode="T" horiz-adv-x="548" d="M196,0l153,0l0,546l184,0l0,128l-518,0l0,-128l181,0z"/>
<glyph unicode="U" horiz-adv-x="682" d="M65,674l0,-376C65,83 165,-11 335,-11C511,-11 616,88 616,296l0,378l-152,0l0,-388C464,167 420,111 340,111C262,111 218,170 218,286l0,388z"/>
<glyph unicode="Y" horiz-adv-x="603" d="M374,0l0,281l222,393l-171,0l-68,-162C337,464 321,425 306,383l-2,0C287,427 273,463 252,512l-69,162l-174,0l213,-398l0,-276z"/>
<glyph unicode="a" horiz-adv-x="528" d="M476,0C471,27 469,72 469,119l0,170C469,404 417,500 254,500C165,500 98,476 64,457l28,-98C124,379 177,396 227,396C302,396 316,359 316,333l0,-7C143,327 29,266 29,139C29,61 88,-11 187,-11C245,-11 295,10 327,49l3,0l9,-49M321,178C321,169 320,160 318,152C308,121 277,96 239,96C205,96 179,115 179,154C179,213 241,232 321,231z"/>
<glyph unicode="b" horiz-adv-x="598" d="M186,0l6,68l2,0C229,10 284,-11 341,-11C453,-11 565,77 565,253C566,403 480,500 363,500C295,500 244,473 215,431l-2,0l0,279l-152,0l0,-564C61,91 59,32 57,0M213,280C213,290 214,299 216,308C226,352 264,383 305,383C376,383 410,323 410,247C410,159 370,109 305,109C261,109 226,140 216,181C214,189 213,198 213,208z"/>
<glyph unicode="c" horiz-adv-x="451" d="M410,124C387,115 359,109 323,109C249,109 189,156 189,246C188,326 240,383 320,383C360,383 387,376 405,368l24,113C397,493 353,500 313,500C131,500 33,383 33,240C33,86 134,-10 292,-10C350,-10 401,0 428,12z"/>
<glyph unicode="," horiz-adv-x="260" d="M103,-110C151,-32 196,73 229,175l-155,-10C60,74 33,-30 2,-119z"/>
<glyph unicode="e" horiz-adv-x="528" d="M493,196C495,207 498,230 498,256C498,377 438,500 280,500C110,500 33,363 33,239C33,86 128,-10 294,-10C360,-10 421,0 471,20l-20,103C410,110 368,103 316,103C245,103 183,133 178,196M177,300C181,341 207,399 271,399C341,399 357,337 357,300z"/>
<glyph unicode="l" horiz-adv-x="275" d="M61,0l152,0l0,710l-152,0z"/>
<glyph unicode="m" horiz-adv-x="860" d="M61,0l148,0l0,285C209,297 210,311 215,323C224,348 247,378 286,378C334,378 356,336 356,274l0,-274l148,0l0,286C504,298 506,314 510,325C520,354 545,378 580,378C629,378 652,337 652,266l0,-266l148,0l0,288C800,434 729,500 635,500C599,500 569,492 542,476C519,462 497,442 479,417l-2,0C456,468 406,500 343,500C259,500 216,454 195,423l-3,0l-7,66l-128,0C59,446 61,394 61,333z"/>
<glyph unicode="o" horiz-adv-x="577" d="M294,500C137,500 33,399 33,241C33,83 143,-11 286,-11C417,-11 544,71 544,250C544,397 444,500 294,500M290,392C359,392 387,318 387,245C387,157 349,98 290,98C225,98 190,161 190,245C190,317 217,392 290,392z"/>
<glyph unicode="." horiz-adv-x="260" d="M139,-11C193,-11 229,28 229,81C229,136 193,174 140,174C87,174 50,135 50,81C50,28 87,-11 139,-11z"/>
<glyph unicode="s" horiz-adv-x="434" d="M33,24C70,4 127,-10 191,-10C331,-10 403,57 403,148C402,220 363,267 270,299C210,320 191,332 191,355C191,380 212,395 249,395C291,395 333,379 355,367l27,105C352,487 301,500 244,500C123,500 45,431 45,340C44,282 83,227 184,193C241,174 256,162 256,137C256,112 237,96 191,96C146,96 88,116 60,133z"/>
<glyph unicode=" " horiz-adv-x="202"/>
<glyph unicode="u" horiz-adv-x="583" d="M522,489l-153,0l0,-291C369,186 368,174 364,165C354,141 330,112 288,112C235,112 212,155 212,226l0,263l-153,0l0,-287C59,51 132,-11 231,-11C319,-11 365,39 384,69l3,0l7,-69l132,0C524,41 522,93 522,157z"/>
<glyph unicode="z" horiz-adv-x="469" d="M22,0l425,0l0,121l-235,0l0,2C240,150 265,181 292,213l147,185l0,91l-400,0l0,-120l215,0l0,-2C226,337 204,313 176,280l-154,-193z"/>
</font>

	<font horiz-adv-x="1000">
<!-- Copyright 1992, 1994, 1997, 2000, 2004 Adobe Systems Incorporated. All rights reserved. Myriad is either a registered trademark or a trademark of Adobe Systems Incorporated in the United States and/or other countries. -->
<font-face font-family="MyriadPro-Cond" units-per-em="1000" underline-position="-100" underline-thickness="50"/>
<missing-glyph horiz-adv-x="500" d="M0,0l500,0l0,700l-500,0M250,395l-170,255l340,0M280,350l170,255l0,-510M80,50l170,255l170,-255M50,605l170,-255l-170,-255z"/>
<glyph unicode="A" horiz-adv-x="435" d="M290,202l45,-202l76,0l-150,674l-85,0l-154,-674l74,0l45,202M152,264l35,171C196,480 206,538 214,589l4,0C226,539 235,483 245,435l35,-171z"/>
<glyph unicode="B" horiz-adv-x="416" d="M60,3C81,-1 111,-4 161,-4C238,-4 301,14 339,57C369,90 387,135 387,191C387,279 340,342 262,363l0,2C328,391 366,446 366,515C366,563 351,603 322,630C286,664 234,677 173,677C130,677 92,672 60,664M137,612C146,615 160,617 178,617C260,617 289,569 289,507C289,436 235,388 172,388l-35,0M137,329l34,0C243,328 308,284 308,191C308,104 256,57 176,57C159,57 146,59 137,61z"/>
<glyph unicode="C" horiz-adv-x="373" d="M342,77C326,69 300,62 271,62C189,62 113,130 113,336C113,542 197,612 269,612C304,612 321,605 337,598l17,65C340,672 311,680 270,680C164,680 32,595 32,329C32,100 126,-6 258,-6C300,-6 333,1 354,12z"/>
<glyph unicode="E" horiz-adv-x="354" d="M306,385l-169,0l0,222l180,0l0,67l-257,0l0,-674l269,0l0,67l-192,0l0,253l169,0z"/>
<glyph unicode="L" horiz-adv-x="344" d="M60,0l267,0l0,65l-190,0l0,609l-77,0z"/>
<glyph unicode="M" horiz-adv-x="599" d="M482,0l72,0l-39,674l-86,0l-76,-308C331,275 316,211 303,134l-3,0C286,211 269,277 246,366l-79,308l-83,0l-40,-674l69,0l13,285C130,381 134,475 134,554l3,0C150,476 170,393 192,307l79,-303l49,0l83,316C424,399 442,479 457,554l4,0C458,478 463,379 468,290z"/>
<glyph unicode="O" horiz-adv-x="446" d="M230,682C112,682 32,561 32,338C32,111 107,-8 219,-8C327,-8 414,89 414,342C414,557 345,682 230,682M223,614C311,614 334,465 334,339C334,207 311,60 224,60C139,60 112,198 112,337C112,474 139,614 223,614z"/>
<glyph unicode="S" horiz-adv-x="361" d="M28,23C47,9 96,-6 142,-6C249,-6 331,67 331,183C331,258 295,320 214,377C150,423 115,449 115,516C115,562 146,612 212,612C247,612 275,601 292,589l19,66C295,667 258,680 216,680C109,680 38,605 38,503C38,416 112,353 165,316C218,276 254,238 254,176C254,108 212,62 142,62C108,62 68,74 45,89z"/>
<glyph unicode="U" horiz-adv-x="457" d="M59,674l0,-449C59,58 125,-8 226,-8C326,-8 398,59 398,234l0,440l-77,0l0,-452C321,104 285,60 228,60C176,60 136,101 136,222l0,452z"/>
<glyph unicode="Z" horiz-adv-x="358" d="M20,0l316,0l0,66l-226,0l0,3l227,553l0,52l-298,0l0,-66l212,0l0,-3l-231,-559z"/>
<glyph unicode=" " horiz-adv-x="157"/>
</font>

	<font horiz-adv-x="1000">
<!-- Copyright 1992, 1994, 1997, 2000, 2004 Adobe Systems Incorporated. All rights reserved. Myriad is either a registered trademark or a trademark of Adobe Systems Incorporated in the United States and/or other countries. -->
<font-face font-family="MyriadPro-Light" units-per-em="1000" underline-position="-100" underline-thickness="50"/>
<missing-glyph horiz-adv-x="500" d="M0,0l500,0l0,700l-500,0M250,395l-170,255l340,0M280,350l170,255l0,-510M80,50l170,255l170,-255M50,605l170,-255l-170,-255z"/>
<glyph unicode="A" horiz-adv-x="612" d="M424,212l72,-212l93,0l-230,674l-105,0l-229,-674l90,0l70,212M203,280l66,195C282,516 293,557 303,597l2,0C315,558 325,518 340,474l66,-194z"/>
<glyph unicode="B" horiz-adv-x="542" d="M76,2C105,-2 151,-6 211,-6C321,-6 397,14 444,57C478,90 501,134 501,192C501,292 426,345 362,361l0,2C433,389 476,446 476,511C476,564 455,604 420,630C378,664 322,679 235,679C174,679 114,673 76,665M163,606C177,609 200,612 240,612C328,612 388,581 388,502C388,437 334,389 242,389l-79,0M163,323l72,0C330,323 409,285 409,193C409,95 326,62 236,62C205,62 180,63 163,66z"/>
<glyph unicode="C" horiz-adv-x="580" d="M529,91C494,74 440,63 387,63C223,63 128,169 128,334C128,511 233,612 391,612C447,612 494,600 527,584l21,71C525,667 472,685 388,685C179,685 36,542 36,331C36,110 179,-10 369,-10C451,-10 515,6 547,22z"/>
<glyph unicode="E" horiz-adv-x="492" d="M425,388l-262,0l0,213l277,0l0,73l-364,0l0,-674l379,0l0,73l-292,0l0,243l262,0z"/>
<glyph unicode="&#xC9;" horiz-adv-x="492" d="M425,388l-262,0l0,213l277,0l0,73l-364,0l0,-674l379,0l0,73l-292,0l0,243l262,0M302,827l-93,-117l72,0l127,117z"/>
<glyph unicode="H" horiz-adv-x="652" d="M76,674l0,-674l87,0l0,316l326,0l0,-316l88,0l0,674l-88,0l0,-282l-326,0l0,282z"/>
<glyph unicode="J" horiz-adv-x="370" d="M214,230C214,98 168,63 90,63C61,63 35,69 17,76l-13,-71C26,-4 65,-11 97,-11C213,-11 301,44 301,223l0,451l-87,0z"/>
<glyph unicode="M" horiz-adv-x="804" d="M661,0l85,0l-42,674l-111,0l-120,-326C443,263 419,189 402,121l-3,0C382,191 359,265 331,348l-115,326l-111,0l-47,-674l83,0l18,289C165,390 170,503 172,587l2,0C193,507 220,420 252,325l109,-321l66,0l119,327C580,424 608,508 631,587l3,0C633,503 639,390 644,296z"/>
<glyph unicode="N" horiz-adv-x="658" d="M158,0l0,288C158,400 156,481 151,566l3,1C188,494 233,417 280,342l214,-342l88,0l0,674l-82,0l0,-282C500,287 502,205 510,115l-2,-1C476,183 437,254 387,333l-216,341l-95,0l0,-674z"/>
<glyph unicode="O" horiz-adv-x="689" d="M349,685C169,685 36,545 36,331C36,127 161,-11 339,-11C511,-11 652,112 652,344C652,544 533,685 349,685M345,614C490,614 560,474 560,340C560,187 482,60 344,60C207,60 129,189 129,333C129,481 201,614 345,614z"/>
<glyph unicode="Q" horiz-adv-x="689" d="M657,-26C600,-16 527,0 460,17l0,4C572,60 652,171 652,344C652,543 533,685 350,685C168,685 36,546 36,330C36,113 173,-5 333,-11C346,-11 360,-16 374,-21C452,-48 541,-75 632,-99M343,60C207,60 128,189 129,332C128,478 200,614 347,614C490,614 560,475 560,340C560,186 482,60 343,60z"/>
<glyph unicode="R" horiz-adv-x="538" d="M76,0l87,0l0,292l82,0C324,289 360,254 380,161C399,77 414,19 425,0l90,0C501,26 485,91 463,185C447,255 416,303 364,321l0,3C435,348 491,407 491,496C491,548 472,594 438,624C396,662 336,679 243,679C183,679 120,674 76,665M163,604C177,608 207,612 249,612C341,611 404,573 404,486C404,409 345,358 252,358l-89,0z"/>
<glyph unicode="S" horiz-adv-x="493" d="M42,33C78,9 149,-10 214,-10C373,-10 450,80 450,184C450,283 392,338 278,382C185,418 144,449 144,512C144,558 179,613 271,613C332,613 377,593 399,581l24,71C393,669 343,685 274,685C143,685 56,607 56,502C56,407 124,350 234,311C325,276 361,240 361,177C361,109 309,62 220,62C160,62 103,82 64,106z"/>
<glyph unicode="T" horiz-adv-x="497" d="M204,0l88,0l0,600l206,0l0,74l-499,0l0,-74l205,0z"/>
<glyph unicode="U" horiz-adv-x="647" d="M75,674l0,-397C75,68 179,-11 317,-11C463,-11 572,74 572,281l0,393l-88,0l0,-399C484,126 420,60 320,60C230,60 163,124 163,275l0,399z"/>
<glyph unicode="a" horiz-adv-x="482" d="M421,0C415,33 413,74 413,116l0,181C413,394 377,495 229,495C168,495 110,478 70,452l20,-58C124,416 171,430 216,430C315,430 326,358 326,318l0,-10C139,309 35,245 35,128C35,58 85,-11 183,-11C252,-11 304,23 331,61l3,0l7,-61M328,163C328,154 326,144 323,135C309,94 269,54 206,54C161,54 123,81 123,138C123,232 232,249 328,247z"/>
<glyph unicode="@" horiz-adv-x="737" d="M448,255C437,193 384,119 326,119C282,119 260,151 260,195C260,292 331,375 419,375C442,375 459,371 469,368M508,-21C467,-44 414,-56 357,-56C209,-56 100,47 100,214C100,417 237,546 400,546C555,546 642,442 642,297C642,181 585,113 534,114C501,115 489,150 504,226l34,181C512,419 474,428 431,428C292,428 194,315 194,191C194,112 244,65 302,65C362,65 408,94 443,153l4,0C444,92 481,65 521,65C615,65 699,153 699,303C699,470 582,592 408,592C186,592 43,414 43,208C43,16 182,-104 346,-104C413,-104 469,-93 524,-64z"/>
<glyph unicode="b" horiz-adv-x="569" d="M145,0l4,80l3,0C188,16 244,-11 314,-11C422,-11 531,75 531,248C532,395 447,495 327,495C249,495 193,460 162,406l-2,0l0,304l-87,0l0,-585C73,82 71,33 69,0M160,281C160,295 163,307 165,317C183,384 239,425 299,425C393,425 443,342 443,245C443,134 388,59 296,59C232,59 181,101 164,162C162,172 160,183 160,194z"/>
<glyph unicode="c" horiz-adv-x="448" d="M403,84C378,73 345,60 295,60C199,60 127,129 127,241C127,342 187,424 298,424C346,424 379,413 400,401l20,68C396,481 350,494 298,494C140,494 38,386 38,237C38,89 133,-10 279,-10C344,-10 395,6 418,18z"/>
<glyph unicode="d" horiz-adv-x="564" d="M403,710l0,-289l-2,0C379,460 329,495 255,495C137,495 37,396 38,235C38,88 128,-11 245,-11C324,-11 383,30 410,84l2,0l4,-84l79,0C492,33 491,82 491,125l0,585M403,203C403,189 402,177 399,165C383,99 329,60 270,60C175,60 127,141 127,239C127,346 181,426 272,426C338,426 386,380 399,324C402,313 403,298 403,287z"/>
<glyph unicode="e" horiz-adv-x="501" d="M462,226C463,235 465,249 465,267C465,356 423,495 265,495C124,495 38,380 38,234C38,88 127,-10 276,-10C353,-10 406,6 437,20l-15,63C389,69 351,58 288,58C200,58 124,107 122,226M123,289C130,350 169,432 258,432C357,432 381,345 380,289z"/>
<glyph unicode="8" horiz-adv-x="513" d="M255,-11C379,-11 476,65 476,178C476,257 426,314 345,346l0,3C425,387 452,446 452,501C452,582 389,661 263,661C149,661 62,591 62,488C62,432 93,376 165,342l1,-3C86,305 37,247 37,165C37,70 119,-11 255,-11M257,53C174,53 124,111 127,177C127,239 168,289 244,311C332,286 387,248 387,169C387,102 336,53 257,53M258,598C337,598 368,544 368,492C368,433 325,393 269,374C194,394 145,429 145,494C145,550 185,598 258,598z"/>
<glyph unicode="f" horiz-adv-x="292" d="M169,0l0,417l117,0l0,67l-117,0l0,26C169,584 188,650 263,650C288,650 306,645 319,639l12,68C314,714 287,721 256,721C215,721 171,708 138,676C97,637 82,575 82,507l0,-23l-68,0l0,-67l68,0l0,-417z"/>
<glyph unicode="5" horiz-adv-x="513" d="M433,650l-311,0l-42,-312C104,341 133,345 170,345C300,345 356,285 357,201C357,114 286,60 203,60C144,60 91,80 64,96l-22,-67C73,9 133,-11 204,-11C345,-11 446,84 446,211C446,293 404,349 353,378C313,402 263,413 213,413C189,413 175,411 160,409l25,167l248,0z"/>
<glyph unicode="4" horiz-adv-x="513" d="M400,0l0,177l91,0l0,69l-91,0l0,404l-95,0l-290,-415l0,-58l302,0l0,-177M104,246l0,2l159,221C281,499 297,527 317,565l3,0C318,531 317,497 317,463l0,-217z"/>
<glyph unicode="g" horiz-adv-x="559" d="M413,484l-4,-73l-2,0C386,451 340,495 256,495C145,495 38,402 38,238C38,104 124,2 244,2C319,2 371,38 398,83l2,0l0,-54C400,-93 334,-140 244,-140C184,-140 134,-122 102,-102l-22,-67C119,-195 183,-209 241,-209C302,-209 370,-195 417,-151C464,-109 486,-41 486,70l0,281C486,410 488,449 490,484M399,206C399,191 397,174 392,159C373,103 324,69 270,69C175,69 127,148 127,243C127,355 187,426 271,426C335,426 378,384 394,333C398,321 399,308 399,293z"/>
<glyph unicode="i" horiz-adv-x="234" d="M161,0l0,484l-88,0l0,-484M117,675C85,675 62,651 62,620C62,590 84,566 115,566C150,566 172,590 171,620C171,651 150,675 117,675z"/>
<glyph unicode="m" horiz-adv-x="834" d="M73,0l86,0l0,292C159,307 161,322 166,335C180,379 220,423 275,423C342,423 376,367 376,290l0,-290l86,0l0,299C462,315 465,331 469,343C484,386 523,423 573,423C644,423 678,367 678,274l0,-274l86,0l0,285C764,453 669,495 605,495C559,495 527,483 498,461C478,446 459,425 444,398l-2,0C421,455 371,495 305,495C225,495 180,452 153,406l-3,0l-4,78l-77,0C72,444 73,403 73,353z"/>
<glyph unicode="n" horiz-adv-x="555" d="M73,0l88,0l0,291C161,306 163,321 167,332C182,381 227,422 285,422C368,422 397,357 397,279l0,-279l88,0l0,289C485,455 381,495 314,495C234,495 178,450 154,404l-2,0l-5,80l-78,0C72,444 73,403 73,353z"/>
<glyph unicode="9" horiz-adv-x="513" d="M96,-10C117,-11 145,-10 177,-5C247,3 316,33 366,82C430,144 478,244 478,387C478,553 396,661 263,661C130,661 41,553 41,430C41,319 116,231 233,231C298,231 350,257 386,301l3,0C377,224 346,167 303,128C266,93 218,72 167,65C137,62 115,60 96,62M256,594C348,594 389,509 389,398C389,384 386,374 381,366C358,327 312,298 253,298C177,298 128,355 128,436C128,528 181,594 256,594z"/>
<glyph unicode="o" horiz-adv-x="549" d="M278,495C144,495 38,400 38,238C38,85 139,-11 270,-11C387,-11 511,67 511,246C511,394 417,495 278,495M276,429C380,429 421,325 421,243C421,134 358,55 274,55C188,55 127,135 127,241C127,333 172,429 276,429z"/>
<glyph unicode="1" horiz-adv-x="513" d="M236,0l85,0l0,650l-75,0l-142,-76l17,-67l113,61l2,0z"/>
<glyph unicode="p" horiz-adv-x="569" d="M73,-198l87,0l0,263l2,0C191,17 247,-11 311,-11C425,-11 531,75 531,249C531,396 443,495 326,495C247,495 190,460 154,401l-2,0l-4,83l-79,0C71,438 73,388 73,326M160,280C160,292 163,305 166,316C183,382 239,425 299,425C392,425 443,342 443,245C443,134 389,58 296,58C233,58 180,100 164,161C162,172 160,184 160,197z"/>
<glyph unicode="." horiz-adv-x="207" d="M111,-11C148,-11 171,16 171,52C171,89 147,115 112,115C77,115 52,89 52,52C52,16 76,-11 111,-11z"/>
<glyph unicode="&#xB7;" horiz-adv-x="207" d="M103,200C139,200 163,227 163,263C162,300 139,326 104,326C69,326 44,299 44,263C43,227 68,200 103,200z"/>
<glyph unicode="+" horiz-adv-x="596" d="M266,532l0,-235l-226,0l0,-60l226,0l0,-237l64,0l0,237l226,0l0,60l-226,0l0,235z"/>
<glyph unicode="&#x201C;" horiz-adv-x="354" d="M125,451C136,523 162,626 184,685l-56,-6C100,633 57,525 34,441M273,451C284,523 310,626 332,685l-56,-6C249,633 205,525 183,441z"/>
<glyph unicode="&#x201D;" horiz-adv-x="354" d="M93,676C82,604 55,500 34,441l56,7C117,494 160,601 183,685M241,676C230,604 204,500 182,441l56,7C265,494 308,601 331,685z"/>
<glyph unicode="r" horiz-adv-x="327" d="M73,0l87,0l0,258C160,273 162,287 164,299C176,365 220,412 282,412C294,412 303,411 312,409l0,83C304,494 297,495 287,495C228,495 175,454 153,389l-4,0l-3,95l-77,0C72,439 73,390 73,333z"/>
<glyph unicode="7" horiz-adv-x="513" d="M57,650l0,-73l318,0l0,-2l-282,-575l91,0l283,592l0,58z"/>
<glyph unicode="6" horiz-adv-x="513" d="M416,660C400,660 378,659 352,655C270,645 198,612 144,559C80,495 34,394 34,266C34,97 125,-11 264,-11C399,-11 480,99 480,218C480,345 399,428 284,428C212,428 158,394 127,353l-3,0C139,460 212,561 350,584C375,588 398,589 416,588M264,57C172,57 123,136 121,243C121,259 125,272 131,282C155,329 204,362 257,362C338,362 391,306 391,213C391,120 340,57 264,57z"/>
<glyph unicode=" " horiz-adv-x="212"/>
<glyph unicode="t" horiz-adv-x="331" d="M93,600l0,-116l-75,0l0,-67l75,0l0,-264C93,96 102,53 127,27C148,3 181,-10 222,-10C256,-10 283,-5 300,2l-4,66C285,65 268,62 245,62C196,62 179,96 179,156l0,261l126,0l0,67l-126,0l0,139z"/>
<glyph unicode="3" horiz-adv-x="513" d="M42,33C74,12 138,-11 211,-11C367,-11 448,80 448,184C448,275 383,335 303,351l0,2C383,382 423,439 423,506C423,585 365,661 237,661C167,661 101,636 67,611l23,-64C118,567 168,590 220,590C301,590 334,544 334,492C334,415 253,382 189,382l-49,0l0,-66l49,0C274,316 356,277 357,186C358,132 323,60 210,60C149,60 91,85 66,101z"/>
<glyph unicode="y" horiz-adv-x="471" d="M9,484l179,-446C192,27 194,20 194,15C194,10 191,3 187,-6C167,-51 137,-85 113,-104C87,-126 58,-140 36,-147l22,-74C80,-217 123,-202 166,-164C226,-112 269,-27 332,139l132,345l-93,0l-96,-284C263,165 253,128 244,99l-2,0C234,128 222,166 211,198l-106,286z"/>
<glyph unicode="0" horiz-adv-x="513" d="M262,661C130,661 36,541 36,323C38,108 124,-11 251,-11C395,-11 477,111 477,332C477,539 399,661 262,661M257,593C348,593 389,488 389,328C389,162 346,57 256,57C176,57 124,153 124,322C124,499 180,593 257,593z"/>
</font>

	<font horiz-adv-x="1000">
<!-- Copyright 1992, 1994, 1997, 2000, 2004 Adobe Systems Incorporated. All rights reserved. Myriad is either a registered trademark or a trademark of Adobe Systems Incorporated in the United States and/or other countries. -->
<font-face font-family="MyriadPro-Regular" units-per-em="1000" underline-position="-100" underline-thickness="50"/>
<missing-glyph horiz-adv-x="500" d="M0,0l500,0l0,700l-500,0M250,395l-170,255l340,0M280,350l170,255l0,-510M80,50l170,255l170,-255M50,605l170,-255l-170,-255z"/>
<glyph unicode="A" horiz-adv-x="612" d="M424,212l72,-212l93,0l-230,674l-105,0l-229,-674l90,0l70,212M203,280l66,195C282,516 293,557 303,597l2,0C315,558 325,518 340,474l66,-194z"/>
<glyph unicode="B" horiz-adv-x="542" d="M76,2C105,-2 151,-6 211,-6C321,-6 397,14 444,57C478,90 501,134 501,192C501,292 426,345 362,361l0,2C433,389 476,446 476,511C476,564 455,604 420,630C378,664 322,679 235,679C174,679 114,673 76,665M163,606C177,609 200,612 240,612C328,612 388,581 388,502C388,437 334,389 242,389l-79,0M163,323l72,0C330,323 409,285 409,193C409,95 326,62 236,62C205,62 180,63 163,66z"/>
<glyph unicode="C" horiz-adv-x="580" d="M529,91C494,74 440,63 387,63C223,63 128,169 128,334C128,511 233,612 391,612C447,612 494,600 527,584l21,71C525,667 472,685 388,685C179,685 36,542 36,331C36,110 179,-10 369,-10C451,-10 515,6 547,22z"/>
<glyph unicode="D" horiz-adv-x="666" d="M76,2C120,-3 172,-6 234,-6C365,-6 469,28 532,91C595,153 629,243 629,353C629,462 594,540 534,595C475,650 386,679 261,679C192,679 129,673 76,665M163,601C186,606 220,610 265,610C449,610 539,509 538,350C538,168 437,64 251,64C217,64 185,65 163,69z"/>
<glyph unicode="E" horiz-adv-x="492" d="M425,388l-262,0l0,213l277,0l0,73l-364,0l0,-674l379,0l0,73l-292,0l0,243l262,0z"/>
<glyph unicode="G" horiz-adv-x="646" d="M589,354l-222,0l0,-70l137,0l0,-201C484,73 445,65 388,65C231,65 128,166 128,337C128,506 235,608 399,608C467,608 512,595 548,579l21,71C540,664 479,681 401,681C175,681 37,534 36,333C36,228 72,138 130,82C196,19 280,-7 382,-7C473,-7 550,16 589,30z"/>
<glyph unicode="H" horiz-adv-x="652" d="M76,674l0,-674l87,0l0,316l326,0l0,-316l88,0l0,674l-88,0l0,-282l-326,0l0,282z"/>
<glyph unicode="I" horiz-adv-x="239" d="M76,674l0,-674l87,0l0,674z"/>
<glyph unicode="L" horiz-adv-x="472" d="M76,0l375,0l0,73l-288,0l0,601l-87,0z"/>
<glyph unicode="M" horiz-adv-x="804" d="M661,0l85,0l-42,674l-111,0l-120,-326C443,263 419,189 402,121l-3,0C382,191 359,265 331,348l-115,326l-111,0l-47,-674l83,0l18,289C165,390 170,503 172,587l2,0C193,507 220,420 252,325l109,-321l66,0l119,327C580,424 608,508 631,587l3,0C633,503 639,390 644,296z"/>
<glyph unicode="N" horiz-adv-x="658" d="M158,0l0,288C158,400 156,481 151,566l3,1C188,494 233,417 280,342l214,-342l88,0l0,674l-82,0l0,-282C500,287 502,205 510,115l-2,-1C476,183 437,254 387,333l-216,341l-95,0l0,-674z"/>
<glyph unicode="O" horiz-adv-x="689" d="M349,685C169,685 36,545 36,331C36,127 161,-11 339,-11C511,-11 652,112 652,344C652,544 533,685 349,685M345,614C490,614 560,474 560,340C560,187 482,60 344,60C207,60 129,189 129,333C129,481 201,614 345,614z"/>
<glyph unicode="&#xD3;" horiz-adv-x="689" d="M349,685C169,685 36,545 36,331C36,127 161,-11 339,-11C511,-11 652,112 652,344C652,544 533,685 349,685M345,614C490,614 560,474 560,340C560,187 482,60 344,60C207,60 129,189 129,333C129,481 201,614 345,614M384,829l-93,-116l72,0l127,116z"/>
<glyph unicode="P" horiz-adv-x="532" d="M76,0l87,0l0,270C183,265 207,264 233,264C318,264 393,289 439,338C473,373 491,421 491,482C491,542 469,591 432,623C392,659 329,679 243,679C173,679 118,673 76,666M163,603C178,607 207,610 245,610C341,610 404,567 404,478C404,385 340,334 235,334C206,334 182,336 163,341z"/>
<glyph unicode="Q" horiz-adv-x="689" d="M657,-26C600,-16 527,0 460,17l0,4C572,60 652,171 652,344C652,543 533,685 350,685C168,685 36,546 36,330C36,113 173,-5 333,-11C346,-11 360,-16 374,-21C452,-48 541,-75 632,-99M343,60C207,60 128,189 129,332C128,478 200,614 347,614C490,614 560,475 560,340C560,186 482,60 343,60z"/>
<glyph unicode="R" horiz-adv-x="538" d="M76,0l87,0l0,292l82,0C324,289 360,254 380,161C399,77 414,19 425,0l90,0C501,26 485,91 463,185C447,255 416,303 364,321l0,3C435,348 491,407 491,496C491,548 472,594 438,624C396,662 336,679 243,679C183,679 120,674 76,665M163,604C177,608 207,612 249,612C341,611 404,573 404,486C404,409 345,358 252,358l-89,0z"/>
<glyph unicode="S" horiz-adv-x="493" d="M42,33C78,9 149,-10 214,-10C373,-10 450,80 450,184C450,283 392,338 278,382C185,418 144,449 144,512C144,558 179,613 271,613C332,613 377,593 399,581l24,71C393,669 343,685 274,685C143,685 56,607 56,502C56,407 124,350 234,311C325,276 361,240 361,177C361,109 309,62 220,62C160,62 103,82 64,106z"/>
<glyph unicode="T" horiz-adv-x="497" d="M204,0l88,0l0,600l206,0l0,74l-499,0l0,-74l205,0z"/>
<glyph unicode="V" horiz-adv-x="558" d="M320,0l241,674l-93,0l-114,-333C324,253 296,168 277,90l-2,0C257,169 232,251 203,342l-105,332l-94,0l220,-674z"/>
<glyph unicode="Y" horiz-adv-x="541" d="M314,0l0,287l226,387l-99,0l-97,-186C318,437 295,393 276,349l-2,0C253,396 233,437 207,488l-95,186l-99,0l213,-388l0,-286z"/>
<glyph unicode="a" horiz-adv-x="482" d="M421,0C415,33 413,74 413,116l0,181C413,394 377,495 229,495C168,495 110,478 70,452l20,-58C124,416 171,430 216,430C315,430 326,358 326,318l0,-10C139,309 35,245 35,128C35,58 85,-11 183,-11C252,-11 304,23 331,61l3,0l7,-61M328,163C328,154 326,144 323,135C309,94 269,54 206,54C161,54 123,81 123,138C123,232 232,249 328,247z"/>
<glyph unicode="&#xE1;" horiz-adv-x="482" d="M421,0C415,33 413,74 413,116l0,181C413,394 377,495 229,495C168,495 110,478 70,452l20,-58C124,416 171,430 216,430C315,430 326,358 326,318l0,-10C139,309 35,245 35,128C35,58 85,-11 183,-11C252,-11 304,23 331,61l3,0l7,-61M328,163C328,154 326,144 323,135C309,94 269,54 206,54C161,54 123,81 123,138C123,232 232,249 328,247M275,693l-88,-143l63,0l122,143z"/>
<glyph unicode="b" horiz-adv-x="569" d="M145,0l4,80l3,0C188,16 244,-11 314,-11C422,-11 531,75 531,248C532,395 447,495 327,495C249,495 193,460 162,406l-2,0l0,304l-87,0l0,-585C73,82 71,33 69,0M160,281C160,295 163,307 165,317C183,384 239,425 299,425C393,425 443,342 443,245C443,134 388,59 296,59C232,59 181,101 164,162C162,172 160,183 160,194z"/>
<glyph unicode="c" horiz-adv-x="448" d="M403,84C378,73 345,60 295,60C199,60 127,129 127,241C127,342 187,424 298,424C346,424 379,413 400,401l20,68C396,481 350,494 298,494C140,494 38,386 38,237C38,89 133,-10 279,-10C344,-10 395,6 418,18z"/>
<glyph unicode=":" horiz-adv-x="207" d="M111,342C148,342 171,369 171,404C170,441 147,467 112,467C77,467 52,441 52,404C52,369 76,342 111,342M111,-11C148,-11 171,16 171,51C170,88 147,114 112,114C77,114 52,88 52,51C52,16 76,-11 111,-11z"/>
<glyph unicode="," horiz-adv-x="207" d="M79,-117C107,-70 151,41 174,126l-98,-10C65,43 38,-64 16,-123z"/>
<glyph unicode="&#xA9;" horiz-adv-x="677" d="M340,648C170,648 36,510 36,340C36,168 170,30 340,30C509,30 641,168 641,340C641,510 509,648 340,648M340,607C481,607 591,489 591,340C591,188 481,71 340,71C196,71 86,188 86,337C86,489 196,607 340,607M474,493C461,505 416,520 364,520C263,520 173,448 173,334C173,233 240,153 356,153C398,153 444,161 479,184l-12,38C444,207 406,196 366,196C274,196 225,259 225,337C225,417 271,477 365,477C412,477 449,461 462,454z"/>
<glyph unicode="d" horiz-adv-x="564" d="M403,710l0,-289l-2,0C379,460 329,495 255,495C137,495 37,396 38,235C38,88 128,-11 245,-11C324,-11 383,30 410,84l2,0l4,-84l79,0C492,33 491,82 491,125l0,585M403,203C403,189 402,177 399,165C383,99 329,60 270,60C175,60 127,141 127,239C127,346 181,426 272,426C338,426 386,380 399,324C402,313 403,298 403,287z"/>
<glyph unicode="e" horiz-adv-x="501" d="M462,226C463,235 465,249 465,267C465,356 423,495 265,495C124,495 38,380 38,234C38,88 127,-10 276,-10C353,-10 406,6 437,20l-15,63C389,69 351,58 288,58C200,58 124,107 122,226M123,289C130,350 169,432 258,432C357,432 381,345 380,289z"/>
<glyph unicode="&#xE9;" horiz-adv-x="501" d="M462,226C463,235 465,249 465,267C465,356 423,495 265,495C124,495 38,380 38,234C38,88 127,-10 276,-10C353,-10 406,6 437,20l-15,63C389,69 351,58 288,58C200,58 124,107 122,226M123,289C130,350 169,432 258,432C357,432 381,345 380,289M304,693l-88,-143l63,0l122,143z"/>
<glyph unicode="&#x2026;" horiz-adv-x="1000" d="M167,-11C203,-11 226,16 226,52C226,89 203,115 167,115C132,115 108,89 108,52C107,16 132,-11 167,-11M500,-11C536,-11 560,16 560,52C559,89 536,115 501,115C466,115 441,89 441,52C440,16 465,-11 500,-11M833,-11C870,-11 893,16 893,52C893,89 869,115 834,115C799,115 774,89 774,52C774,16 798,-11 833,-11z"/>
<glyph unicode="f" horiz-adv-x="292" d="M169,0l0,417l117,0l0,67l-117,0l0,26C169,584 188,650 263,650C288,650 306,645 319,639l12,68C314,714 287,721 256,721C215,721 171,708 138,676C97,637 82,575 82,507l0,-23l-68,0l0,-67l68,0l0,-417z"/>
<glyph unicode="g" horiz-adv-x="559" d="M413,484l-4,-73l-2,0C386,451 340,495 256,495C145,495 38,402 38,238C38,104 124,2 244,2C319,2 371,38 398,83l2,0l0,-54C400,-93 334,-140 244,-140C184,-140 134,-122 102,-102l-22,-67C119,-195 183,-209 241,-209C302,-209 370,-195 417,-151C464,-109 486,-41 486,70l0,281C486,410 488,449 490,484M399,206C399,191 397,174 392,159C373,103 324,69 270,69C175,69 127,148 127,243C127,355 187,426 271,426C335,426 378,384 394,333C398,321 399,308 399,293z"/>
<glyph unicode="h" horiz-adv-x="555" d="M73,0l88,0l0,292C161,309 162,322 167,334C183,382 228,422 285,422C368,422 397,356 397,278l0,-278l88,0l0,288C485,455 381,495 316,495C283,495 252,485 226,470C199,455 177,433 163,408l-2,0l0,302l-88,0z"/>
<glyph unicode="-" horiz-adv-x="307" d="M30,303l0,-65l247,0l0,65z"/>
<glyph unicode="i" horiz-adv-x="234" d="M161,0l0,484l-88,0l0,-484M117,675C85,675 62,651 62,620C62,590 84,566 115,566C150,566 172,590 171,620C171,651 150,675 117,675z"/>
<glyph unicode="j" horiz-adv-x="243" d="M-36,-209C11,-209 75,-193 114,-154C157,-110 172,-49 172,45l0,439l-88,0l0,-405C84,-37 75,-75 51,-103C30,-126 -5,-137 -45,-140M129,675C96,675 73,651 73,620C73,591 94,566 127,566C162,566 183,591 182,620C182,651 161,675 129,675z"/>
<glyph unicode="k" horiz-adv-x="469" d="M160,710l-87,0l0,-710l87,0l0,182l45,50l167,-232l107,0l-213,285l187,199l-106,0l-142,-167C191,300 174,279 162,262l-2,0z"/>
<glyph unicode="l" horiz-adv-x="236" d="M73,0l88,0l0,710l-88,0z"/>
<glyph unicode="m" horiz-adv-x="834" d="M73,0l86,0l0,292C159,307 161,322 166,335C180,379 220,423 275,423C342,423 376,367 376,290l0,-290l86,0l0,299C462,315 465,331 469,343C484,386 523,423 573,423C644,423 678,367 678,274l0,-274l86,0l0,285C764,453 669,495 605,495C559,495 527,483 498,461C478,446 459,425 444,398l-2,0C421,455 371,495 305,495C225,495 180,452 153,406l-3,0l-4,78l-77,0C72,444 73,403 73,353z"/>
<glyph unicode="n" horiz-adv-x="555" d="M73,0l88,0l0,291C161,306 163,321 167,332C182,381 227,422 285,422C368,422 397,357 397,279l0,-279l88,0l0,289C485,455 381,495 314,495C234,495 178,450 154,404l-2,0l-5,80l-78,0C72,444 73,403 73,353z"/>
<glyph unicode="&#xF1;" horiz-adv-x="555" d="M73,0l88,0l0,291C161,306 163,321 167,332C182,381 227,422 285,422C368,422 397,357 397,279l0,-279l88,0l0,289C485,455 381,495 314,495C234,495 178,450 154,404l-2,0l-5,80l-78,0C72,444 73,403 73,353M203,567C205,595 213,612 229,612C241,612 252,606 272,594C293,583 312,574 333,574C380,574 403,608 402,675l-47,0C353,641 343,632 327,632C315,632 301,640 285,649C262,662 245,671 223,671C180,671 153,632 155,567z"/>
<glyph unicode="o" horiz-adv-x="549" d="M278,495C144,495 38,400 38,238C38,85 139,-11 270,-11C387,-11 511,67 511,246C511,394 417,495 278,495M276,429C380,429 421,325 421,243C421,134 358,55 274,55C188,55 127,135 127,241C127,333 172,429 276,429z"/>
<glyph unicode="&#xF3;" horiz-adv-x="549" d="M278,495C144,495 38,400 38,238C38,85 139,-11 270,-11C387,-11 511,67 511,246C511,394 417,495 278,495M276,429C380,429 421,325 421,243C421,134 358,55 274,55C188,55 127,135 127,241C127,333 172,429 276,429M309,693l-88,-143l63,0l122,143z"/>
<glyph unicode="1" horiz-adv-x="513" d="M236,0l85,0l0,650l-75,0l-142,-76l17,-67l113,61l2,0z"/>
<glyph unicode="p" horiz-adv-x="569" d="M73,-198l87,0l0,263l2,0C191,17 247,-11 311,-11C425,-11 531,75 531,249C531,396 443,495 326,495C247,495 190,460 154,401l-2,0l-4,83l-79,0C71,438 73,388 73,326M160,280C160,292 163,305 166,316C183,382 239,425 299,425C392,425 443,342 443,245C443,134 389,58 296,58C233,58 180,100 164,161C162,172 160,184 160,197z"/>
<glyph unicode="." horiz-adv-x="207" d="M111,-11C148,-11 171,16 171,52C171,89 147,115 112,115C77,115 52,89 52,52C52,16 76,-11 111,-11z"/>
<glyph unicode="&#xB7;" horiz-adv-x="207" d="M103,200C139,200 163,227 163,263C162,300 139,326 104,326C69,326 44,299 44,263C43,227 68,200 103,200z"/>
<glyph unicode="+" horiz-adv-x="596" d="M266,532l0,-235l-226,0l0,-60l226,0l0,-237l64,0l0,237l226,0l0,60l-226,0l0,235z"/>
<glyph unicode="q" horiz-adv-x="563" d="M403,-198l88,0l0,549C491,401 492,443 494,484l-83,0l-3,-73l-2,0C382,458 332,495 257,495C155,495 38,415 38,234C38,87 130,-11 243,-11C321,-11 375,27 401,75l2,0M403,197C403,184 400,167 396,155C376,94 327,59 270,59C173,59 127,143 127,239C127,348 182,425 273,425C339,425 386,379 399,325C402,314 403,300 403,288z"/>
<glyph unicode="r" horiz-adv-x="327" d="M73,0l87,0l0,258C160,273 162,287 164,299C176,365 220,412 282,412C294,412 303,411 312,409l0,83C304,494 297,495 287,495C228,495 175,454 153,389l-4,0l-3,95l-77,0C72,439 73,390 73,333z"/>
<glyph unicode="&#x2DA;" horiz-adv-x="300" d="M142,537C199,537 242,576 242,629C242,682 203,723 143,723C80,723 41,681 41,628C41,577 82,537 142,537M141,574C112,574 92,602 92,628C92,659 110,685 141,685C173,685 193,660 193,630C193,600 173,574 141,574z"/>
<glyph unicode="s" horiz-adv-x="396" d="M39,23C73,3 122,-10 175,-10C290,-10 356,50 356,135C356,207 313,249 229,281C166,305 137,323 137,363C137,399 166,429 218,429C263,429 298,413 317,401l22,64C312,481 269,495 220,495C116,495 53,431 53,353C53,295 94,247 181,216C246,192 271,169 271,127C271,87 241,55 177,55C133,55 87,73 61,90z"/>
<glyph unicode="6" horiz-adv-x="513" d="M416,660C400,660 378,659 352,655C270,645 198,612 144,559C80,495 34,394 34,266C34,97 125,-11 264,-11C399,-11 480,99 480,218C480,345 399,428 284,428C212,428 158,394 127,353l-3,0C139,460 212,561 350,584C375,588 398,589 416,588M264,57C172,57 123,136 121,243C121,259 125,272 131,282C155,329 204,362 257,362C338,362 391,306 391,213C391,120 340,57 264,57z"/>
<glyph unicode="/" horiz-adv-x="343" d="M66,-40l280,725l-68,0l-279,-725z"/>
<glyph unicode=" " horiz-adv-x="212"/>
<glyph unicode="t" horiz-adv-x="331" d="M93,600l0,-116l-75,0l0,-67l75,0l0,-264C93,96 102,53 127,27C148,3 181,-10 222,-10C256,-10 283,-5 300,2l-4,66C285,65 268,62 245,62C196,62 179,96 179,156l0,261l126,0l0,67l-126,0l0,139z"/>
<glyph unicode="3" horiz-adv-x="513" d="M42,33C74,12 138,-11 211,-11C367,-11 448,80 448,184C448,275 383,335 303,351l0,2C383,382 423,439 423,506C423,585 365,661 237,661C167,661 101,636 67,611l23,-64C118,567 168,590 220,590C301,590 334,544 334,492C334,415 253,382 189,382l-49,0l0,-66l49,0C274,316 356,277 357,186C358,132 323,60 210,60C149,60 91,85 66,101z"/>
<glyph unicode="2" horiz-adv-x="513" d="M460,0l0,73l-292,0l0,2l52,48C357,255 444,352 444,472C444,565 385,661 245,661C170,661 106,633 61,595l28,-62C119,558 168,588 227,588C324,588 356,527 356,461C355,363 280,279 114,121l-69,-67l0,-54z"/>
<glyph unicode="u" horiz-adv-x="551" d="M478,484l-88,0l0,-297C390,171 387,155 382,142C366,103 325,62 266,62C186,62 158,124 158,216l0,268l-88,0l0,-283C70,31 161,-11 237,-11C323,-11 374,40 397,79l2,0l5,-79l78,0C479,38 478,82 478,132z"/>
<glyph unicode="v" horiz-adv-x="481" d="M13,484l184,-484l84,0l190,484l-92,0l-94,-272C269,168 255,128 244,88l-3,0C231,128 218,168 202,212l-95,272z"/>
<glyph unicode="x" horiz-adv-x="463" d="M16,484l164,-237l-172,-247l97,0l70,109C193,138 210,164 226,193l2,0C245,164 261,137 280,109l71,-109l100,0l-170,250l165,234l-95,0l-68,-103C267,355 251,330 235,301l-3,0C216,328 201,353 183,380l-69,104z"/>
<glyph unicode="y" horiz-adv-x="471" d="M9,484l179,-446C192,27 194,20 194,15C194,10 191,3 187,-6C167,-51 137,-85 113,-104C87,-126 58,-140 36,-147l22,-74C80,-217 123,-202 166,-164C226,-112 269,-27 332,139l132,345l-93,0l-96,-284C263,165 253,128 244,99l-2,0C234,128 222,166 211,198l-106,286z"/>
<glyph unicode="0" horiz-adv-x="513" d="M262,661C130,661 36,541 36,323C38,108 124,-11 251,-11C395,-11 477,111 477,332C477,539 399,661 262,661M257,593C348,593 389,488 389,328C389,162 346,57 256,57C176,57 124,153 124,322C124,499 180,593 257,593z"/>
</font>

	<font horiz-adv-x="1000">
<!-- Copyright 1992, 1994, 1997, 2000, 2004 Adobe Systems Incorporated. All rights reserved. Myriad is either a registered trademark or a trademark of Adobe Systems Incorporated in the United States and/or other countries. -->
<font-face font-family="ModestyRegularByMCT" units-per-em="1000" underline-position="-100" underline-thickness="50"/>
<missing-glyph horiz-adv-x="500" d="M0,0l500,0l0,700l-500,0M250,395l-170,255l340,0M280,350l170,255l0,-510M80,50l170,255l170,-255M50,605l170,-255l-170,-255z"/>
<glyph unicode="A" horiz-adv-x="612" d="M424,212l72,-212l93,0l-230,674l-105,0l-229,-674l90,0l70,212M203,280l66,195C282,516 293,557 303,597l2,0C315,558 325,518 340,474l66,-194z"/>
<glyph unicode="C" horiz-adv-x="580" d="M529,91C494,74 440,63 387,63C223,63 128,169 128,334C128,511 233,612 391,612C447,612 494,600 527,584l21,71C525,667 472,685 388,685C179,685 36,542 36,331C36,110 179,-10 369,-10C451,-10 515,6 547,22z"/>
<glyph unicode="D" horiz-adv-x="666" d="M76,2C120,-3 172,-6 234,-6C365,-6 469,28 532,91C595,153 629,243 629,353C629,462 594,540 534,595C475,650 386,679 261,679C192,679 129,673 76,665M163,601C186,606 220,610 265,610C449,610 539,509 538,350C538,168 437,64 251,64C217,64 185,65 163,69z"/>
<glyph unicode="R" horiz-adv-x="538" d="M76,0l87,0l0,292l82,0C324,289 360,254 380,161C399,77 414,19 425,0l90,0C501,26 485,91 463,185C447,255 416,303 364,321l0,3C435,348 491,407 491,496C491,548 472,594 438,624C396,662 336,679 243,679C183,679 120,674 76,665M163,604C177,608 207,612 249,612C341,611 404,573 404,486C404,409 345,358 252,358l-89,0z"/>
<glyph unicode="a" horiz-adv-x="482" d="M421,0C415,33 413,74 413,116l0,181C413,394 377,495 229,495C168,495 110,478 70,452l20,-58C124,416 171,430 216,430C315,430 326,358 326,318l0,-10C139,309 35,245 35,128C35,58 85,-11 183,-11C252,-11 304,23 331,61l3,0l7,-61M328,163C328,154 326,144 323,135C309,94 269,54 206,54C161,54 123,81 123,138C123,232 232,249 328,247z"/>
<glyph unicode="c" horiz-adv-x="448" d="M403,84C378,73 345,60 295,60C199,60 127,129 127,241C127,342 187,424 298,424C346,424 379,413 400,401l20,68C396,481 350,494 298,494C140,494 38,386 38,237C38,89 133,-10 279,-10C344,-10 395,6 418,18z"/>
<glyph unicode="d" horiz-adv-x="564" d="M403,710l0,-289l-2,0C379,460 329,495 255,495C137,495 37,396 38,235C38,88 128,-11 245,-11C324,-11 383,30 410,84l2,0l4,-84l79,0C492,33 491,82 491,125l0,585M403,203C403,189 402,177 399,165C383,99 329,60 270,60C175,60 127,141 127,239C127,346 181,426 272,426C338,426 386,380 399,324C402,313 403,298 403,287z"/>
<glyph unicode="e" horiz-adv-x="501" d="M462,226C463,235 465,249 465,267C465,356 423,495 265,495C124,495 38,380 38,234C38,88 127,-10 276,-10C353,-10 406,6 437,20l-15,63C389,69 351,58 288,58C200,58 124,107 122,226M123,289C130,350 169,432 258,432C357,432 381,345 380,289z"/>
<glyph unicode="g" horiz-adv-x="559" d="M413,484l-4,-73l-2,0C386,451 340,495 256,495C145,495 38,402 38,238C38,104 124,2 244,2C319,2 371,38 398,83l2,0l0,-54C400,-93 334,-140 244,-140C184,-140 134,-122 102,-102l-22,-67C119,-195 183,-209 241,-209C302,-209 370,-195 417,-151C464,-109 486,-41 486,70l0,281C486,410 488,449 490,484M399,206C399,191 397,174 392,159C373,103 324,69 270,69C175,69 127,148 127,243C127,355 187,426 271,426C335,426 378,384 394,333C398,321 399,308 399,293z"/>
<glyph unicode="i" horiz-adv-x="234" d="M161,0l0,484l-88,0l0,-484M117,675C85,675 62,651 62,620C62,590 84,566 115,566C150,566 172,590 171,620C171,651 150,675 117,675z"/>
<glyph unicode="l" horiz-adv-x="236" d="M73,0l88,0l0,710l-88,0z"/>
<glyph unicode="n" horiz-adv-x="555" d="M73,0l88,0l0,291C161,306 163,321 167,332C182,381 227,422 285,422C368,422 397,357 397,279l0,-279l88,0l0,289C485,455 381,495 314,495C234,495 178,450 154,404l-2,0l-5,80l-78,0C72,444 73,403 73,353z"/>
<glyph unicode="o" horiz-adv-x="549" d="M278,495C144,495 38,400 38,238C38,85 139,-11 270,-11C387,-11 511,67 511,246C511,394 417,495 278,495M276,429C380,429 421,325 421,243C421,134 358,55 274,55C188,55 127,135 127,241C127,333 172,429 276,429z"/>
<glyph unicode="r" horiz-adv-x="327" d="M73,0l87,0l0,258C160,273 162,287 164,299C176,365 220,412 282,412C294,412 303,411 312,409l0,83C304,494 297,495 287,495C228,495 175,454 153,389l-4,0l-3,95l-77,0C72,439 73,390 73,333z"/>
<glyph unicode="s" horiz-adv-x="396" d="M39,23C73,3 122,-10 175,-10C290,-10 356,50 356,135C356,207 313,249 229,281C166,305 137,323 137,363C137,399 166,429 218,429C263,429 298,413 317,401l22,64C312,481 269,495 220,495C116,495 53,431 53,353C53,295 94,247 181,216C246,192 271,169 271,127C271,87 241,55 177,55C133,55 87,73 61,90z"/>
<glyph unicode="t" horiz-adv-x="331" d="M93,600l0,-116l-75,0l0,-67l75,0l0,-264C93,96 102,53 127,27C148,3 181,-10 222,-10C256,-10 283,-5 300,2l-4,66C285,65 268,62 245,62C196,62 179,96 179,156l0,261l126,0l0,67l-126,0l0,139z"/>
<glyph unicode="u" horiz-adv-x="551" d="M478,484l-88,0l0,-297C390,171 387,155 382,142C366,103 325,62 266,62C186,62 158,124 158,216l0,268l-88,0l0,-283C70,31 161,-11 237,-11C323,-11 374,40 397,79l2,0l5,-79l78,0C479,38 478,82 478,132z"/>
</font>

	<font horiz-adv-x="1000">
<!-- Copyright 1992, 1994, 1997, 2000, 2004 Adobe Systems Incorporated. All rights reserved. Myriad is either a registered trademark or a trademark of Adobe Systems Incorporated in the United States and/or other countries. -->
<font-face font-family="MyriadPro-LightIt" units-per-em="1000" underline-position="-100" underline-thickness="50"/>
<missing-glyph horiz-adv-x="500" d="M0,0l500,0l0,700l-500,0M250,395l-170,255l340,0M280,350l170,255l0,-510M80,50l170,255l170,-255M50,605l170,-255l-170,-255z"/>
<glyph unicode="A" horiz-adv-x="612" d="M424,212l72,-212l93,0l-230,674l-105,0l-229,-674l90,0l70,212M203,280l66,195C282,516 293,557 303,597l2,0C315,558 325,518 340,474l66,-194z"/>
<glyph unicode="E" horiz-adv-x="492" d="M425,388l-262,0l0,213l277,0l0,73l-364,0l0,-674l379,0l0,73l-292,0l0,243l262,0z"/>
<glyph unicode="L" horiz-adv-x="472" d="M76,0l375,0l0,73l-288,0l0,601l-87,0z"/>
<glyph unicode="M" horiz-adv-x="804" d="M661,0l85,0l-42,674l-111,0l-120,-326C443,263 419,189 402,121l-3,0C382,191 359,265 331,348l-115,326l-111,0l-47,-674l83,0l18,289C165,390 170,503 172,587l2,0C193,507 220,420 252,325l109,-321l66,0l119,327C580,424 608,508 631,587l3,0C633,503 639,390 644,296z"/>
<glyph unicode="S" horiz-adv-x="493" d="M42,33C78,9 149,-10 214,-10C373,-10 450,80 450,184C450,283 392,338 278,382C185,418 144,449 144,512C144,558 179,613 271,613C332,613 377,593 399,581l24,71C393,669 343,685 274,685C143,685 56,607 56,502C56,407 124,350 234,311C325,276 361,240 361,177C361,109 309,62 220,62C160,62 103,82 64,106z"/>
<glyph unicode="a" horiz-adv-x="482" d="M421,0C415,33 413,74 413,116l0,181C413,394 377,495 229,495C168,495 110,478 70,452l20,-58C124,416 171,430 216,430C315,430 326,358 326,318l0,-10C139,309 35,245 35,128C35,58 85,-11 183,-11C252,-11 304,23 331,61l3,0l7,-61M328,163C328,154 326,144 323,135C309,94 269,54 206,54C161,54 123,81 123,138C123,232 232,249 328,247z"/>
<glyph unicode="&#xE1;" horiz-adv-x="482" d="M421,0C415,33 413,74 413,116l0,181C413,394 377,495 229,495C168,495 110,478 70,452l20,-58C124,416 171,430 216,430C315,430 326,358 326,318l0,-10C139,309 35,245 35,128C35,58 85,-11 183,-11C252,-11 304,23 331,61l3,0l7,-61M328,163C328,154 326,144 323,135C309,94 269,54 206,54C161,54 123,81 123,138C123,232 232,249 328,247M275,693l-88,-143l63,0l122,143z"/>
<glyph unicode="b" horiz-adv-x="569" d="M145,0l4,80l3,0C188,16 244,-11 314,-11C422,-11 531,75 531,248C532,395 447,495 327,495C249,495 193,460 162,406l-2,0l0,304l-87,0l0,-585C73,82 71,33 69,0M160,281C160,295 163,307 165,317C183,384 239,425 299,425C393,425 443,342 443,245C443,134 388,59 296,59C232,59 181,101 164,162C162,172 160,183 160,194z"/>
<glyph unicode="c" horiz-adv-x="448" d="M403,84C378,73 345,60 295,60C199,60 127,129 127,241C127,342 187,424 298,424C346,424 379,413 400,401l20,68C396,481 350,494 298,494C140,494 38,386 38,237C38,89 133,-10 279,-10C344,-10 395,6 418,18z"/>
<glyph unicode="d" horiz-adv-x="564" d="M403,710l0,-289l-2,0C379,460 329,495 255,495C137,495 37,396 38,235C38,88 128,-11 245,-11C324,-11 383,30 410,84l2,0l4,-84l79,0C492,33 491,82 491,125l0,585M403,203C403,189 402,177 399,165C383,99 329,60 270,60C175,60 127,141 127,239C127,346 181,426 272,426C338,426 386,380 399,324C402,313 403,298 403,287z"/>
<glyph unicode="e" horiz-adv-x="501" d="M462,226C463,235 465,249 465,267C465,356 423,495 265,495C124,495 38,380 38,234C38,88 127,-10 276,-10C353,-10 406,6 437,20l-15,63C389,69 351,58 288,58C200,58 124,107 122,226M123,289C130,350 169,432 258,432C357,432 381,345 380,289z"/>
<glyph unicode="f" horiz-adv-x="292" d="M169,0l0,417l117,0l0,67l-117,0l0,26C169,584 188,650 263,650C288,650 306,645 319,639l12,68C314,714 287,721 256,721C215,721 171,708 138,676C97,637 82,575 82,507l0,-23l-68,0l0,-67l68,0l0,-417z"/>
<glyph unicode="-" horiz-adv-x="307" d="M30,303l0,-65l247,0l0,65z"/>
<glyph unicode="i" horiz-adv-x="234" d="M161,0l0,484l-88,0l0,-484M117,675C85,675 62,651 62,620C62,590 84,566 115,566C150,566 172,590 171,620C171,651 150,675 117,675z"/>
<glyph unicode="j" horiz-adv-x="243" d="M-36,-209C11,-209 75,-193 114,-154C157,-110 172,-49 172,45l0,439l-88,0l0,-405C84,-37 75,-75 51,-103C30,-126 -5,-137 -45,-140M129,675C96,675 73,651 73,620C73,591 94,566 127,566C162,566 183,591 182,620C182,651 161,675 129,675z"/>
<glyph unicode="l" horiz-adv-x="236" d="M73,0l88,0l0,710l-88,0z"/>
<glyph unicode="m" horiz-adv-x="834" d="M73,0l86,0l0,292C159,307 161,322 166,335C180,379 220,423 275,423C342,423 376,367 376,290l0,-290l86,0l0,299C462,315 465,331 469,343C484,386 523,423 573,423C644,423 678,367 678,274l0,-274l86,0l0,285C764,453 669,495 605,495C559,495 527,483 498,461C478,446 459,425 444,398l-2,0C421,455 371,495 305,495C225,495 180,452 153,406l-3,0l-4,78l-77,0C72,444 73,403 73,353z"/>
<glyph unicode="n" horiz-adv-x="555" d="M73,0l88,0l0,291C161,306 163,321 167,332C182,381 227,422 285,422C368,422 397,357 397,279l0,-279l88,0l0,289C485,455 381,495 314,495C234,495 178,450 154,404l-2,0l-5,80l-78,0C72,444 73,403 73,353z"/>
<glyph unicode="&#xF1;" horiz-adv-x="555" d="M73,0l88,0l0,291C161,306 163,321 167,332C182,381 227,422 285,422C368,422 397,357 397,279l0,-279l88,0l0,289C485,455 381,495 314,495C234,495 178,450 154,404l-2,0l-5,80l-78,0C72,444 73,403 73,353M203,567C205,595 213,612 229,612C241,612 252,606 272,594C293,583 312,574 333,574C380,574 403,608 402,675l-47,0C353,641 343,632 327,632C315,632 301,640 285,649C262,662 245,671 223,671C180,671 153,632 155,567z"/>
<glyph unicode="o" horiz-adv-x="549" d="M278,495C144,495 38,400 38,238C38,85 139,-11 270,-11C387,-11 511,67 511,246C511,394 417,495 278,495M276,429C380,429 421,325 421,243C421,134 358,55 274,55C188,55 127,135 127,241C127,333 172,429 276,429z"/>
<glyph unicode="&#xF3;" horiz-adv-x="549" d="M278,495C144,495 38,400 38,238C38,85 139,-11 270,-11C387,-11 511,67 511,246C511,394 417,495 278,495M276,429C380,429 421,325 421,243C421,134 358,55 274,55C188,55 127,135 127,241C127,333 172,429 276,429M309,693l-88,-143l63,0l122,143z"/>
<glyph unicode="p" horiz-adv-x="569" d="M73,-198l87,0l0,263l2,0C191,17 247,-11 311,-11C425,-11 531,75 531,249C531,396 443,495 326,495C247,495 190,460 154,401l-2,0l-4,83l-79,0C71,438 73,388 73,326M160,280C160,292 163,305 166,316C183,382 239,425 299,425C392,425 443,342 443,245C443,134 389,58 296,58C233,58 180,100 164,161C162,172 160,184 160,197z"/>
<glyph unicode="." horiz-adv-x="207" d="M111,-11C148,-11 171,16 171,52C171,89 147,115 112,115C77,115 52,89 52,52C52,16 76,-11 111,-11z"/>
<glyph unicode="q" horiz-adv-x="563" d="M403,-198l88,0l0,549C491,401 492,443 494,484l-83,0l-3,-73l-2,0C382,458 332,495 257,495C155,495 38,415 38,234C38,87 130,-11 243,-11C321,-11 375,27 401,75l2,0M403,197C403,184 400,167 396,155C376,94 327,59 270,59C173,59 127,143 127,239C127,348 182,425 273,425C339,425 386,379 399,325C402,314 403,300 403,288z"/>
<glyph unicode="r" horiz-adv-x="327" d="M73,0l87,0l0,258C160,273 162,287 164,299C176,365 220,412 282,412C294,412 303,411 312,409l0,83C304,494 297,495 287,495C228,495 175,454 153,389l-4,0l-3,95l-77,0C72,439 73,390 73,333z"/>
<glyph unicode="s" horiz-adv-x="396" d="M39,23C73,3 122,-10 175,-10C290,-10 356,50 356,135C356,207 313,249 229,281C166,305 137,323 137,363C137,399 166,429 218,429C263,429 298,413 317,401l22,64C312,481 269,495 220,495C116,495 53,431 53,353C53,295 94,247 181,216C246,192 271,169 271,127C271,87 241,55 177,55C133,55 87,73 61,90z"/>
<glyph unicode=" " horiz-adv-x="212"/>
<glyph unicode="t" horiz-adv-x="331" d="M93,600l0,-116l-75,0l0,-67l75,0l0,-264C93,96 102,53 127,27C148,3 181,-10 222,-10C256,-10 283,-5 300,2l-4,66C285,65 268,62 245,62C196,62 179,96 179,156l0,261l126,0l0,67l-126,0l0,139z"/>
<glyph unicode="u" horiz-adv-x="551" d="M478,484l-88,0l0,-297C390,171 387,155 382,142C366,103 325,62 266,62C186,62 158,124 158,216l0,268l-88,0l0,-283C70,31 161,-11 237,-11C323,-11 374,40 397,79l2,0l5,-79l78,0C479,38 478,82 478,132z"/>
<glyph unicode="v" horiz-adv-x="481" d="M13,484l184,-484l84,0l190,484l-92,0l-94,-272C269,168 255,128 244,88l-3,0C231,128 218,168 202,212l-95,272z"/>
<glyph unicode="y" horiz-adv-x="471" d="M9,484l179,-446C192,27 194,20 194,15C194,10 191,3 187,-6C167,-51 137,-85 113,-104C87,-126 58,-140 36,-147l22,-74C80,-217 123,-202 166,-164C226,-112 269,-27 332,139l132,345l-93,0l-96,-284C263,165 253,128 244,99l-2,0C234,128 222,166 211,198l-106,286z"/>
</font>
</svg>
